Welcome you to a large collection website for media files Britney Spears. Here you can find all videos, concerts and interviews for download.
We have a lot of sections. Have all the albums, singles and remixes.
Our website is developing all the time and stay with us.
- With Big Love Ruslan
2018/02/12 / Posted by: / Categories news:

< back >

Part 1

Part 2

Part 3

Part 4

Part 5

Part 6

Part 7

Part 8

Part 9

Part 10

Part 11

Part 12

Part 13

Password: Bluray


Code::

General
Unique ID : 221170116421591329851013447969332234041 (0xA663D0A3F8845C89AC5801B51F0B8739)
Complete name : Britney.Spears.Live.The.Femme.Fatale.Tour.2011.BluRay.1080p.x264.DTS-HDChina.mkv
Format : Matroska
Format version : Version 2
File size : 12.0 GiB
Duration : 1 h 25 min
Overall bit rate : 20.0 Mb/s
Encoded date : UTC 2011-11-25 17:50:46
Writing application : mkvmerge v4.0.0 (‘The Stars were mine’) built on Jun 6 2010 16:18:42
Writing library : libebml v1.0.0 + libmatroska v1.0.0

Video
ID : 1
Format : AVC
Format/Info : Advanced Video Codec
Format profile : High@L4.1
Format settings, CABAC : Yes
Format settings, ReFrames : 4 frames
Codec ID : V_MPEG4/ISO/AVC
Duration : 1 h 25 min
Bit rate : 18.5 Mb/s
Width : 1 920 pixels
Height : 1 080 pixels
Display aspect ratio : 16:9
Frame rate mode : Constant
Frame rate : 29.970 (30000/1001) FPS
Color space : YUV
Chroma subsampling : 4:2:0
Bit depth : 8 bits
Scan type : Progressive
Bits/(Pixel*Frame) : 0.298
Stream size : 10.9 GiB (90%)
Writing library : x264 core 116 r2074 2641b9e

Default : No
Forced : No

Audio
ID : 2
Format : DTS
Format/Info : Digital Theater Systems
Mode : 16
Format settings, Endianness : Big
Codec ID : A_DTS
Duration : 1 h 25 min
Bit rate mode : Constant
Bit rate : 1 510 kb/s
Channel(s) : 6 channels
Channel positions : Front: L C R, Side: L R, LFE
Sampling rate : 48.0 kHz
Frame rate : 93.750 FPS (512 spf)
Bit depth : 24 bits
Compression mode : Lossy
Stream size : 928 MiB (8%)
Language : English
Default : Yes
Forced : No


I’m so excited to announce that we’re bringing the #PieceOfMe tour to select cities in North America, Europe and the UK! See you guys this summer!
Britney Spears

Details at britneyspears.com/events

britneytourclub.com

Slumber Party 2016
Type: ProRes
Size: 5.13 GB
DOWNLOAD
Hold It Against Me 2011
Type: ProRes
Size: 5.46 GB
DOWNLOAD
Womanizer 2008
Type: ProRes (RIP)
Size: 273 MB
DOWNLOAD
Saturday Night Live 2002
Type: WMV
Size: 289 MB
DOWNLOAD
S&M (BMA 2011)
Type: Blu-ray 720p
Size: 1.15 GB
DOWNLOAD
My Prerogative (Bed Ver) 2004
Type: MKV
Size: 435 MB
DOWNLOAD
Discography (1998 - 2016)
Type: M4A ACC iTunes
Size: 4.56 GB
DOWNLOAD
HBO Commercial HD (3 Ver) 2001
Type: MOV
Size: 101 MB
DOWNLOAD
Apple Music Festival 2016
Type: MKV 4K
Size: 3.4 GB
DOWNLOAD
iHeartRadio Music Festival 2016
Type: TS 1080P
Size: 6.61 GB
DOWNLOAD
Type: Britney Spears Media
E-mail: Contact Us
Since: 2014/05/24
Layout version 5: BSM by Studiox93
Webmaster: Ruslan
Uploaded files: 1.3 TB

VIDEO / AUDIO / EXTRAS / IMG / SITE
PRIVATE POLICE

britneyspears.ru
britneyspears.com.ua
britneyphotos.org