Welcome you to a large collection website for media files Britney Spears. Here you can find all videos, concerts and interviews for download.
We have a lot of sections. Have all the albums, singles and remixes.
Our website is developing all the time and stay with us.
- With Big Love Ruslan
2018/02/12 / Posted by: / Categories news:

< back >

Part 1

Part 2

Part 3

Part 4

Part 5

Part 6

Part 7

Password: Bluray


Code::

General
Unique ID : 208143932369379764066876388710159021984 (0x9C97102E7B9384AC8FD2BFB7CA78F7A0)
Complete name : Britney.Spears.Live.The.Femme.Fatale.Tour.2011.1080i.3D.HDTV.HSBS.Ac3-5.1-BLUEBIRD.mkv
Format : Matroska
Format version : Version 2
File size : 6.78 GiB
Duration : 1 h 25 min
Overall bit rate mode : Variable
Overall bit rate : 11.4 Mb/s
Movie name : Britney Spears
Encoded date : UTC 2012-05-01 10:11:14
Writing application : mkvmerge v4.0.0 (‘The Stars were mine’) built on Jun 6 2010 16:18:42
Writing library : libebml v1.0.0 + libmatroska v1.0.0

Video
ID : 1
Format : AVC
Format/Info : Advanced Video Codec
Format profile : Main@L4
Format settings, CABAC : Yes
Format settings, ReFrames : 2 frames
Format settings, GOP : M=3, N=15
Codec ID : V_MPEG4/ISO/AVC
Duration : 1 h 25 min
Bit rate mode : Variable
Bit rate : 10.8 Mb/s
Maximum bit rate : 16.5 Mb/s
Width : 1 920 pixels
Height : 1 080 pixels
Display aspect ratio : 16:9
Frame rate mode : Constant
Frame rate : 25.000 FPS
Color space : YUV
Chroma subsampling : 4:2:0
Bit depth : 8 bits
Scan type : Progressive
Bits/(Pixel*Frame) : 0.208
Stream size : 6.41 GiB (95%)
Default : Yes
Forced : No

Audio
ID : 2
Format : AC-3
Format/Info : Audio Coding 3
Format settings, Endianness : Big
Codec ID : A_AC3
Duration : 1 h 25 min
Bit rate mode : Constant
Bit rate : 384 kb/s
Channel(s) : 6 channels
Channel positions : Front: L C R, Side: L R, LFE
Sampling rate : 48.0 kHz
Frame rate : 31.250 FPS (1536 spf)
Bit depth : 16 bits
Compression mode : Lossy
Stream size : 234 MiB (3%)
Language : English
Service kind : Complete Main
Default : Yes
Forced : No


I’m so excited to announce that we’re bringing the #PieceOfMe tour to select cities in North America, Europe and the UK! See you guys this summer!
Britney Spears

Details at britneyspears.com/events

britneytourclub.com

Womanizer (Director’s Cut)
Type: LPCM UPSCALE 720P
Size: 1.54 GB
DOWNLOAD
Oops!...I Did It Again (Uncut Ver)
Type: MOV HD 1080P
Size: 608 MB
DOWNLOAD
Hold It Against Me
Type: MOV HD 1080P
Size: 330 MB
DOWNLOAD
For the Record (English/Russian)
Type: TS 1920×1080
Size: 7.22 GB
DOWNLOAD
Crossroads (iTunes)
Type: MKV 1280×718
Size: 3.03 GB
DOWNLOAD
Love Me Down (EP Single)
Type: MP3
Size: 56 MB
DOWNLOAD
Discography (1998 - 2016)
Type: M4A ACC iTunes
Size: 4.56 GB
DOWNLOAD
I Am Britney Jean
Type: TS 1920×1080
Size: 8.18 GB
DOWNLOAD
In The Zone (Live)
Type: HD 1080P
Size: 3.77 GB
DOWNLOAD
Glory (Japan Tour Edition)
Type: FLAC Lossless
Size: 1.02 GB
DOWNLOAD
Type: Britney Spears Media
E-mail: Contact Us
Since: 2014/03/21
Layout version 5: BSM by Studiox93
Webmaster: Ruslan
Uploaded files: 989 GB

VIDEO / AUDIO / EXTRAS / IMG / SITE
PRIVATE POLICE

britneyspears.ru
britneyspears.com.ua
britneyphotos.org